Android Client - Some songs PINed repeating

Post your Server Bug Report

Android Client - Some songs PINed repeating

Unread postby drrighteous » 04 Nov 2013, 14:22

Version 5.0.3770
Server jetty/8.y.z-SNAPSHOT, java 1.7.0_03, Linux (82.8 MB / 292.6 MB)

Certain songs keep re-downloading when PINed, I assume it might be some sort of FFMPEG streaming issue, as the originals are FLAC. In playing the song, versus pinning it, I notice the audio of the last second cuts off, although this does not happen in the madsonic web interface. This does happen to a few other songs I've identified so far.

Unfortunately I first discovered this issue while on 4G, 30GB of transfer later. Oh Well.

Please find the repeating download from the madsonic.log:

[2013-11-04 13:00:26,011] INFO PlayQueueInputStream - admin listening to "Volume III/03 Ya Got Trouble_ Trouble In New Yo.flac"
[2013-11-04 13:00:26,028] DEBUG TranscodeInputStream - Starting transcoder: [/var/madsonic/transcode/Audioffmpeg] [-i] [/mnt/media01/Music/Musicals/Forbidden Broadway Volumes I, II and III O.C.R./Volume III/03 Ya Got Trouble_ Trouble In New Yo.flac] [-ab] [256k] [-ar] [44100] [-ac] [2] [-v] [0] [-f] [mp3] [-]
[2013-11-04 13:00:26,034] DEBUG InputStreamReaderThread - (/var/madsonic/transcode/Audioffmpeg) ffmpeg version N-31780-gd5d74cf, Copyright (c) 2000-2011 the FFmpeg developers
[2013-11-04 13:00:26,034] DEBUG InputStreamReaderThread - (/var/madsonic/transcode/Audioffmpeg) built on Aug 9 2011 14:18:27 with gcc 4.5.2
[2013-11-04 13:00:26,034] DEBUG InputStreamReaderThread - (/var/madsonic/transcode/Audioffmpeg) configuration: --disable-ffplay --disable-ffprobe --disable-ffserver --enable-gpl --enable-nonfree --enable-postproc --enable-pthreads --enable-libfaac --enable-libmp3lame --enable-libvpx --enable-libtheora --enable-libvorbis --enable-libx264 --enable-libxvid --enable-zlib --enable-libopencore-amrnb --enable-libopencore-amrwb --enable-libvpx --enable-version3 --enable-bzlib --enable-static --disable-shared --extra-libs=-static --extra-cflags=--static
[2013-11-04 13:00:26,034] DEBUG InputStreamReaderThread - (/var/madsonic/transcode/Audioffmpeg) libavutil 51. 11. 1 / 51. 11. 1
[2013-11-04 13:00:26,034] DEBUG InputStreamReaderThread - (/var/madsonic/transcode/Audioffmpeg) libavcodec 53. 9. 1 / 53. 9. 1
[2013-11-04 13:00:26,034] DEBUG InputStreamReaderThread - (/var/madsonic/transcode/Audioffmpeg) libavformat 53. 6. 0 / 53. 6. 0
[2013-11-04 13:00:26,034] DEBUG InputStreamReaderThread - (/var/madsonic/transcode/Audioffmpeg) libavdevice 53. 2. 0 / 53. 2. 0
[2013-11-04 13:00:26,034] DEBUG InputStreamReaderThread - (/var/madsonic/transcode/Audioffmpeg) libavfilter 2. 28. 1 / 2. 28. 1
[2013-11-04 13:00:26,034] DEBUG InputStreamReaderThread - (/var/madsonic/transcode/Audioffmpeg) libswscale 2. 0. 0 / 2. 0. 0
[2013-11-04 13:00:26,035] DEBUG InputStreamReaderThread - (/var/madsonic/transcode/Audioffmpeg) libpostproc 51. 2. 0 / 51. 2. 0
[2013-11-04 13:00:26,066] DEBUG InputStreamReaderThread - (/var/madsonic/transcode/Audioffmpeg) [flac @ 0x9dbca20] max_analyze_duration 5000000 reached at 5015510
[2013-11-04 13:00:26,067] DEBUG InputStreamReaderThread - (/var/madsonic/transcode/Audioffmpeg) Input #0, flac, from '/mnt/media01/Music/Musicals/Forbidden Broadway Volumes I, II and III O.C.R./Volume III/03 Ya Got Trouble_ Trouble In New Yo.flac':
[2013-11-04 13:00:26,067] DEBUG InputStreamReaderThread - (/var/madsonic/transcode/Audioffmpeg) Metadata:
[2013-11-04 13:00:26,067] DEBUG InputStreamReaderThread - (/var/madsonic/transcode/Audioffmpeg) TITLE : Ya Got Trouble: Trouble In New York City
[2013-11-04 13:00:26,067] DEBUG InputStreamReaderThread - (/var/madsonic/transcode/Audioffmpeg) ARTIST : Original Cast
[2013-11-04 13:00:26,067] DEBUG InputStreamReaderThread - (/var/madsonic/transcode/Audioffmpeg) ALBUM : Forbidden Broadway - Volume 3
[2013-11-04 13:00:26,067] DEBUG InputStreamReaderThread - (/var/madsonic/transcode/Audioffmpeg) DATE : 1995
[2013-11-04 13:00:26,067] DEBUG InputStreamReaderThread - (/var/madsonic/transcode/Audioffmpeg) COMPILATION : 0
[2013-11-04 13:00:26,067] DEBUG InputStreamReaderThread - (/var/madsonic/transcode/Audioffmpeg) TEMPO : 0 BPM
[2013-11-04 13:00:26,067] DEBUG InputStreamReaderThread - (/var/madsonic/transcode/Audioffmpeg) ITUNNORM : 00000217 00000227 00002C8F 00002A85 0002396E 0002396E 000061C7 00005DEF 0001A025 0001A025
[2013-11-04 13:00:26,067] DEBUG InputStreamReaderThread - (/var/madsonic/transcode/Audioffmpeg) ITUNES_CDDB_IDS : 19+9D6F74D8E38970CBBBEAA7E633797D56+40818
[2013-11-04 13:00:26,067] DEBUG InputStreamReaderThread - (/var/madsonic/transcode/Audioffmpeg) UFIDHTTP://WWW.CDDB.COM/ID3/TAGINFO1.HTML: 3CD3N96S3458840V28AC61CFE869409A33734D7A880A51917AP3
[2013-11-04 13:00:26,069] DEBUG InputStreamReaderThread - (/var/madsonic/transcode/Audioffmpeg) GENRE : Broadway
[2013-11-04 13:00:26,069] DEBUG InputStreamReaderThread - (/var/madsonic/transcode/Audioffmpeg) ENCODED BY : dBpoweramp Release 13.4
[2013-11-04 13:00:26,069] DEBUG InputStreamReaderThread - (/var/madsonic/transcode/Audioffmpeg) track : 3
[2013-11-04 13:00:26,069] DEBUG InputStreamReaderThread - (/var/madsonic/transcode/Audioffmpeg) TOTALTRACKS : 19
[2013-11-04 13:00:26,069] DEBUG InputStreamReaderThread - (/var/madsonic/transcode/Audioffmpeg) disc : 1
[2013-11-04 13:00:26,069] DEBUG InputStreamReaderThread - (/var/madsonic/transcode/Audioffmpeg) TOTALDISCS : 1
[2013-11-04 13:00:26,069] DEBUG InputStreamReaderThread - (/var/madsonic/transcode/Audioffmpeg) Duration: 00:03:11.33, bitrate: 628 kb/s
[2013-11-04 13:00:26,069] DEBUG InputStreamReaderThread - (/var/madsonic/transcode/Audioffmpeg) Stream #0.0: Audio: flac, 44100 Hz, stereo, s16
[2013-11-04 13:00:26,074] DEBUG InputStreamReaderThread - (/var/madsonic/transcode/Audioffmpeg) Output #0, mp3, to 'pipe:':
[2013-11-04 13:00:26,075] DEBUG InputStreamReaderThread - (/var/madsonic/transcode/Audioffmpeg) Metadata:
[2013-11-04 13:00:26,075] DEBUG InputStreamReaderThread - (/var/madsonic/transcode/Audioffmpeg) TIT2 : Ya Got Trouble: Trouble In New York City
[2013-11-04 13:00:26,075] DEBUG InputStreamReaderThread - (/var/madsonic/transcode/Audioffmpeg) TPE1 : Original Cast
[2013-11-04 13:00:26,075] DEBUG InputStreamReaderThread - (/var/madsonic/transcode/Audioffmpeg) TALB : Forbidden Broadway - Volume 3
[2013-11-04 13:00:26,075] DEBUG InputStreamReaderThread - (/var/madsonic/transcode/Audioffmpeg) TDRL : 1995
[2013-11-04 13:00:26,075] DEBUG InputStreamReaderThread - (/var/madsonic/transcode/Audioffmpeg) COMPILATION : 0
[2013-11-04 13:00:26,075] DEBUG InputStreamReaderThread - (/var/madsonic/transcode/Audioffmpeg) TEMPO : 0 BPM
[2013-11-04 13:00:26,075] DEBUG InputStreamReaderThread - (/var/madsonic/transcode/Audioffmpeg) ITUNNORM : 00000217 00000227 00002C8F 00002A85 0002396E 0002396E 000061C7 00005DEF 0001A025 0001A025
[2013-11-04 13:00:26,075] DEBUG InputStreamReaderThread - (/var/madsonic/transcode/Audioffmpeg) ITUNES_CDDB_IDS : 19+9D6F74D8E38970CBBBEAA7E633797D56+40818
[2013-11-04 13:00:26,076] DEBUG InputStreamReaderThread - (/var/madsonic/transcode/Audioffmpeg) UFIDHTTP://WWW.CDDB.COM/ID3/TAGINFO1.HTML: 3CD3N96S3458840V28AC61CFE869409A33734D7A880A51917AP3
[2013-11-04 13:00:26,076] DEBUG InputStreamReaderThread - (/var/madsonic/transcode/Audioffmpeg) TCON : Broadway
[2013-11-04 13:00:26,076] DEBUG InputStreamReaderThread - (/var/madsonic/transcode/Audioffmpeg) ENCODED BY : dBpoweramp Release 13.4
[2013-11-04 13:00:26,076] DEBUG InputStreamReaderThread - (/var/madsonic/transcode/Audioffmpeg) TRCK : 3
[2013-11-04 13:00:26,076] DEBUG InputStreamReaderThread - (/var/madsonic/transcode/Audioffmpeg) TOTALTRACKS : 19
[2013-11-04 13:00:26,076] DEBUG InputStreamReaderThread - (/var/madsonic/transcode/Audioffmpeg) TPOS : 1
[2013-11-04 13:00:26,076] DEBUG InputStreamReaderThread - (/var/madsonic/transcode/Audioffmpeg) TOTALDISCS : 1
[2013-11-04 13:00:26,076] DEBUG InputStreamReaderThread - (/var/madsonic/transcode/Audioffmpeg) TSSE : Lavf53.6.0
[2013-11-04 13:00:26,077] DEBUG InputStreamReaderThread - (/var/madsonic/transcode/Audioffmpeg) Stream #0.0: Audio: libmp3lame, 44100 Hz, 2 channels, s16, 256 kb/s
[2013-11-04 13:00:26,078] DEBUG InputStreamReaderThread - (/var/madsonic/transcode/Audioffmpeg) Stream mapping:
[2013-11-04 13:00:26,079] DEBUG InputStreamReaderThread - (/var/madsonic/transcode/Audioffmpeg) Stream #0.0 -> #0.0
[2013-11-04 13:00:26,079] DEBUG InputStreamReaderThread - (/var/madsonic/transcode/Audioffmpeg) Press [q] to stop, [?] for help
[2013-11-04 13:00:37,975] DEBUG InputStreamReaderThread - (/var/madsonic/transcode/Audioffmpeg) size= 5981kB time=00:03:11.37 bitrate= 256.0kbits/s
[2013-11-04 13:00:37,975] DEBUG InputStreamReaderThread - (/var/madsonic/transcode/Audioffmpeg) video:0kB audio:5980kB global headers:0kB muxing overhead 0.012574%
[2013-11-04 13:00:39,152] INFO PlayQueueInputStream - admin listening to "Volume III/03 Ya Got Trouble_ Trouble In New Yo.flac"
[2013-11-04 13:00:39,157] DEBUG TranscodeInputStream - Starting transcoder: [/var/madsonic/transcode/Audioffmpeg] [-i] [/mnt/media01/Music/Musicals/Forbidden Broadway Volumes I, II and III O.C.R./Volume III/03 Ya Got Trouble_ Trouble In New Yo.flac] [-ab] [256k] [-ar] [44100] [-ac] [2] [-v] [0] [-f] [mp3] [-]
[2013-11-04 13:00:39,163] DEBUG InputStreamReaderThread - (/var/madsonic/transcode/Audioffmpeg) ffmpeg version N-31780-gd5d74cf, Copyright (c) 2000-2011 the FFmpeg developers
[2013-11-04 13:00:39,163] DEBUG InputStreamReaderThread - (/var/madsonic/transcode/Audioffmpeg) built on Aug 9 2011 14:18:27 with gcc 4.5.2
[2013-11-04 13:00:39,163] DEBUG InputStreamReaderThread - (/var/madsonic/transcode/Audioffmpeg) configuration: --disable-ffplay --disable-ffprobe --disable-ffserver --enable-gpl --enable-nonfree --enable-postproc --enable-pthreads --enable-libfaac --enable-libmp3lame --enable-libvpx --enable-libtheora --enable-libvorbis --enable-libx264 --enable-libxvid --enable-zlib --enable-libopencore-amrnb --enable-libopencore-amrwb --enable-libvpx --enable-version3 --enable-bzlib --enable-static --disable-shared --extra-libs=-static --extra-cflags=--static
[2013-11-04 13:00:39,163] DEBUG InputStreamReaderThread - (/var/madsonic/transcode/Audioffmpeg) libavutil 51. 11. 1 / 51. 11. 1
[2013-11-04 13:00:39,163] DEBUG InputStreamReaderThread - (/var/madsonic/transcode/Audioffmpeg) libavcodec 53. 9. 1 / 53. 9. 1
[2013-11-04 13:00:39,163] DEBUG InputStreamReaderThread - (/var/madsonic/transcode/Audioffmpeg) libavformat 53. 6. 0 / 53. 6. 0
[2013-11-04 13:00:39,163] DEBUG InputStreamReaderThread - (/var/madsonic/transcode/Audioffmpeg) libavdevice 53. 2. 0 / 53. 2. 0
[2013-11-04 13:00:39,163] DEBUG InputStreamReaderThread - (/var/madsonic/transcode/Audioffmpeg) libavfilter 2. 28. 1 / 2. 28. 1
[2013-11-04 13:00:39,163] DEBUG InputStreamReaderThread - (/var/madsonic/transcode/Audioffmpeg) libswscale 2. 0. 0 / 2. 0. 0
[2013-11-04 13:00:39,163] DEBUG InputStreamReaderThread - (/var/madsonic/transcode/Audioffmpeg) libpostproc 51. 2. 0 / 51. 2. 0
[2013-11-04 13:00:39,169] DEBUG InputStreamReaderThread - (/var/madsonic/transcode/Audioffmpeg) [flac @ 0x9629a20] max_analyze_duration 5000000 reached at 5015510
[2013-11-04 13:00:39,169] DEBUG InputStreamReaderThread - (/var/madsonic/transcode/Audioffmpeg) Input #0, flac, from '/mnt/media01/Music/Musicals/Forbidden Broadway Volumes I, II and III O.C.R./Volume III/03 Ya Got Trouble_ Trouble In New Yo.flac':
[2013-11-04 13:00:39,169] DEBUG InputStreamReaderThread - (/var/madsonic/transcode/Audioffmpeg) Metadata:
[2013-11-04 13:00:39,169] DEBUG InputStreamReaderThread - (/var/madsonic/transcode/Audioffmpeg) TITLE : Ya Got Trouble: Trouble In New York City
[2013-11-04 13:00:39,169] DEBUG InputStreamReaderThread - (/var/madsonic/transcode/Audioffmpeg) ARTIST : Original Cast
[2013-11-04 13:00:39,169] DEBUG InputStreamReaderThread - (/var/madsonic/transcode/Audioffmpeg) ALBUM : Forbidden Broadway - Volume 3
[2013-11-04 13:00:39,169] DEBUG InputStreamReaderThread - (/var/madsonic/transcode/Audioffmpeg) DATE : 1995
[2013-11-04 13:00:39,169] DEBUG InputStreamReaderThread - (/var/madsonic/transcode/Audioffmpeg) COMPILATION : 0
[2013-11-04 13:00:39,170] DEBUG InputStreamReaderThread - (/var/madsonic/transcode/Audioffmpeg) TEMPO : 0 BPM
[2013-11-04 13:00:39,170] DEBUG InputStreamReaderThread - (/var/madsonic/transcode/Audioffmpeg) ITUNNORM : 00000217 00000227 00002C8F 00002A85 0002396E 0002396E 000061C7 00005DEF 0001A025 0001A025
[2013-11-04 13:00:39,170] DEBUG InputStreamReaderThread - (/var/madsonic/transcode/Audioffmpeg) ITUNES_CDDB_IDS : 19+9D6F74D8E38970CBBBEAA7E633797D56+40818
[2013-11-04 13:00:39,170] DEBUG InputStreamReaderThread - (/var/madsonic/transcode/Audioffmpeg) UFIDHTTP://WWW.CDDB.COM/ID3/TAGINFO1.HTML: 3CD3N96S3458840V28AC61CFE869409A33734D7A880A51917AP3
[2013-11-04 13:00:39,170] DEBUG InputStreamReaderThread - (/var/madsonic/transcode/Audioffmpeg) GENRE : Broadway
[2013-11-04 13:00:39,170] DEBUG InputStreamReaderThread - (/var/madsonic/transcode/Audioffmpeg) ENCODED BY : dBpoweramp Release 13.4
[2013-11-04 13:00:39,170] DEBUG InputStreamReaderThread - (/var/madsonic/transcode/Audioffmpeg) track : 3
[2013-11-04 13:00:39,170] DEBUG InputStreamReaderThread - (/var/madsonic/transcode/Audioffmpeg) TOTALTRACKS : 19
[2013-11-04 13:00:39,170] DEBUG InputStreamReaderThread - (/var/madsonic/transcode/Audioffmpeg) disc : 1
[2013-11-04 13:00:39,171] DEBUG InputStreamReaderThread - (/var/madsonic/transcode/Audioffmpeg) TOTALDISCS : 1
[2013-11-04 13:00:39,171] DEBUG InputStreamReaderThread - (/var/madsonic/transcode/Audioffmpeg) Duration: 00:03:11.33, bitrate: 628 kb/s
[2013-11-04 13:00:39,171] DEBUG InputStreamReaderThread - (/var/madsonic/transcode/Audioffmpeg) Stream #0.0: Audio: flac, 44100 Hz, stereo, s16
[2013-11-04 13:00:39,181] DEBUG InputStreamReaderThread - (/var/madsonic/transcode/Audioffmpeg) Output #0, mp3, to 'pipe:':
[2013-11-04 13:00:39,182] DEBUG InputStreamReaderThread - (/var/madsonic/transcode/Audioffmpeg) Metadata:
[2013-11-04 13:00:39,182] DEBUG InputStreamReaderThread - (/var/madsonic/transcode/Audioffmpeg) TIT2 : Ya Got Trouble: Trouble In New York City
[2013-11-04 13:00:39,182] DEBUG InputStreamReaderThread - (/var/madsonic/transcode/Audioffmpeg) TPE1 : Original Cast
[2013-11-04 13:00:39,182] DEBUG InputStreamReaderThread - (/var/madsonic/transcode/Audioffmpeg) TALB : Forbidden Broadway - Volume 3
[2013-11-04 13:00:39,182] DEBUG InputStreamReaderThread - (/var/madsonic/transcode/Audioffmpeg) TDRL : 1995
[2013-11-04 13:00:39,182] DEBUG InputStreamReaderThread - (/var/madsonic/transcode/Audioffmpeg) COMPILATION : 0
[2013-11-04 13:00:39,182] DEBUG InputStreamReaderThread - (/var/madsonic/transcode/Audioffmpeg) TEMPO : 0 BPM
[2013-11-04 13:00:39,182] DEBUG InputStreamReaderThread - (/var/madsonic/transcode/Audioffmpeg) ITUNNORM : 00000217 00000227 00002C8F 00002A85 0002396E 0002396E 000061C7 00005DEF 0001A025 0001A025
[2013-11-04 13:00:39,182] DEBUG InputStreamReaderThread - (/var/madsonic/transcode/Audioffmpeg) ITUNES_CDDB_IDS : 19+9D6F74D8E38970CBBBEAA7E633797D56+40818
[2013-11-04 13:00:39,182] DEBUG InputStreamReaderThread - (/var/madsonic/transcode/Audioffmpeg) UFIDHTTP://WWW.CDDB.COM/ID3/TAGINFO1.HTML: 3CD3N96S3458840V28AC61CFE869409A33734D7A880A51917AP3
[2013-11-04 13:00:39,183] DEBUG InputStreamReaderThread - (/var/madsonic/transcode/Audioffmpeg) TCON : Broadway
[2013-11-04 13:00:39,183] DEBUG InputStreamReaderThread - (/var/madsonic/transcode/Audioffmpeg) ENCODED BY : dBpoweramp Release 13.4
[2013-11-04 13:00:39,183] DEBUG InputStreamReaderThread - (/var/madsonic/transcode/Audioffmpeg) TRCK : 3
[2013-11-04 13:00:39,183] DEBUG InputStreamReaderThread - (/var/madsonic/transcode/Audioffmpeg) TOTALTRACKS : 19
[2013-11-04 13:00:39,183] DEBUG InputStreamReaderThread - (/var/madsonic/transcode/Audioffmpeg) TPOS : 1
[2013-11-04 13:00:39,183] DEBUG InputStreamReaderThread - (/var/madsonic/transcode/Audioffmpeg) TOTALDISCS : 1
[2013-11-04 13:00:39,183] DEBUG InputStreamReaderThread - (/var/madsonic/transcode/Audioffmpeg) TSSE : Lavf53.6.0
[2013-11-04 13:00:39,183] DEBUG InputStreamReaderThread - (/var/madsonic/transcode/Audioffmpeg) Stream #0.0: Audio: libmp3lame, 44100 Hz, 2 channels, s16, 256 kb/s
[2013-11-04 13:00:39,183] DEBUG InputStreamReaderThread - (/var/madsonic/transcode/Audioffmpeg) Stream mapping:
[2013-11-04 13:00:39,184] DEBUG InputStreamReaderThread - (/var/madsonic/transcode/Audioffmpeg) Stream #0.0 -> #0.0
[2013-11-04 13:00:39,184] DEBUG InputStreamReaderThread - (/var/madsonic/transcode/Audioffmpeg) Press [q] to stop, [?] for help
[2013-11-04 13:00:51,050] DEBUG InputStreamReaderThread - (/var/madsonic/transcode/Audioffmpeg) size= 5981kB time=00:03:11.37 bitrate= 256.0kbits/s
[2013-11-04 13:00:51,050] DEBUG InputStreamReaderThread - (/var/madsonic/transcode/Audioffmpeg) video:0kB audio:5980kB global headers:0kB muxing overhead 0.012574%
[2013-11-04 13:00:54,254] INFO PlayQueueInputStream - admin listening to "Volume III/03 Ya Got Trouble_ Trouble In New Yo.flac"
[2013-11-04 13:00:54,258] DEBUG TranscodeInputStream - Starting transcoder: [/var/madsonic/transcode/Audioffmpeg] [-i] [/mnt/media01/Music/Musicals/Forbidden Broadway Volumes I, II and III O.C.R./Volume III/03 Ya Got Trouble_ Trouble In New Yo.flac] [-ab] [256k] [-ar] [44100] [-ac] [2] [-v] [0] [-f] [mp3] [-]
[2013-11-04 13:00:54,263] DEBUG InputStreamReaderThread - (/var/madsonic/transcode/Audioffmpeg) ffmpeg version N-31780-gd5d74cf, Copyright (c) 2000-2011 the FFmpeg developers
[2013-11-04 13:00:54,263] DEBUG InputStreamReaderThread - (/var/madsonic/transcode/Audioffmpeg) built on Aug 9 2011 14:18:27 with gcc 4.5.2
[2013-11-04 13:00:54,263] DEBUG InputStreamReaderThread - (/var/madsonic/transcode/Audioffmpeg) configuration: --disable-ffplay --disable-ffprobe --disable-ffserver --enable-gpl --enable-nonfree --enable-postproc --enable-pthreads --enable-libfaac --enable-libmp3lame --enable-libvpx --enable-libtheora --enable-libvorbis --enable-libx264 --enable-libxvid --enable-zlib --enable-libopencore-amrnb --enable-libopencore-amrwb --enable-libvpx --enable-version3 --enable-bzlib --enable-static --disable-shared --extra-libs=-static --extra-cflags=--static
[2013-11-04 13:00:54,263] DEBUG InputStreamReaderThread - (/var/madsonic/transcode/Audioffmpeg) libavutil 51. 11. 1 / 51. 11. 1
[2013-11-04 13:00:54,263] DEBUG InputStreamReaderThread - (/var/madsonic/transcode/Audioffmpeg) libavcodec 53. 9. 1 / 53. 9. 1
[2013-11-04 13:00:54,263] DEBUG InputStreamReaderThread - (/var/madsonic/transcode/Audioffmpeg) libavformat 53. 6. 0 / 53. 6. 0
[2013-11-04 13:00:54,263] DEBUG InputStreamReaderThread - (/var/madsonic/transcode/Audioffmpeg) libavdevice 53. 2. 0 / 53. 2. 0
[2013-11-04 13:00:54,264] DEBUG InputStreamReaderThread - (/var/madsonic/transcode/Audioffmpeg) libavfilter 2. 28. 1 / 2. 28. 1
[2013-11-04 13:00:54,264] DEBUG InputStreamReaderThread - (/var/madsonic/transcode/Audioffmpeg) libswscale 2. 0. 0 / 2. 0. 0
[2013-11-04 13:00:54,264] DEBUG InputStreamReaderThread - (/var/madsonic/transcode/Audioffmpeg) libpostproc 51. 2. 0 / 51. 2. 0
[2013-11-04 13:00:54,269] DEBUG InputStreamReaderThread - (/var/madsonic/transcode/Audioffmpeg) [flac @ 0xa1a6a20] max_analyze_duration 5000000 reached at 5015510
[2013-11-04 13:00:54,270] DEBUG InputStreamReaderThread - (/var/madsonic/transcode/Audioffmpeg) Input #0, flac, from '/mnt/media01/Music/Musicals/Forbidden Broadway Volumes I, II and III O.C.R./Volume III/03 Ya Got Trouble_ Trouble In New Yo.flac':
[2013-11-04 13:00:54,270] DEBUG InputStreamReaderThread - (/var/madsonic/transcode/Audioffmpeg) Metadata:
[2013-11-04 13:00:54,270] DEBUG InputStreamReaderThread - (/var/madsonic/transcode/Audioffmpeg) TITLE : Ya Got Trouble: Trouble In New York City
[2013-11-04 13:00:54,270] DEBUG InputStreamReaderThread - (/var/madsonic/transcode/Audioffmpeg) ARTIST : Original Cast
[2013-11-04 13:00:54,270] DEBUG InputStreamReaderThread - (/var/madsonic/transcode/Audioffmpeg) ALBUM : Forbidden Broadway - Volume 3
[2013-11-04 13:00:54,270] DEBUG InputStreamReaderThread - (/var/madsonic/transcode/Audioffmpeg) DATE : 1995
[2013-11-04 13:00:54,270] DEBUG InputStreamReaderThread - (/var/madsonic/transcode/Audioffmpeg) COMPILATION : 0
[2013-11-04 13:00:54,270] DEBUG InputStreamReaderThread - (/var/madsonic/transcode/Audioffmpeg) TEMPO : 0 BPM
[2013-11-04 13:00:54,270] DEBUG InputStreamReaderThread - (/var/madsonic/transcode/Audioffmpeg) ITUNNORM : 00000217 00000227 00002C8F 00002A85 0002396E 0002396E 000061C7 00005DEF 0001A025 0001A025
[2013-11-04 13:00:54,270] DEBUG InputStreamReaderThread - (/var/madsonic/transcode/Audioffmpeg) ITUNES_CDDB_IDS : 19+9D6F74D8E38970CBBBEAA7E633797D56+40818
[2013-11-04 13:00:54,270] DEBUG InputStreamReaderThread - (/var/madsonic/transcode/Audioffmpeg) UFIDHTTP://WWW.CDDB.COM/ID3/TAGINFO1.HTML: 3CD3N96S3458840V28AC61CFE869409A33734D7A880A51917AP3
[2013-11-04 13:00:54,270] DEBUG InputStreamReaderThread - (/var/madsonic/transcode/Audioffmpeg) GENRE : Broadway
[2013-11-04 13:00:54,271] DEBUG InputStreamReaderThread - (/var/madsonic/transcode/Audioffmpeg) ENCODED BY : dBpoweramp Release 13.4
[2013-11-04 13:00:54,271] DEBUG InputStreamReaderThread - (/var/madsonic/transcode/Audioffmpeg) track : 3
[2013-11-04 13:00:54,271] DEBUG InputStreamReaderThread - (/var/madsonic/transcode/Audioffmpeg) TOTALTRACKS : 19
[2013-11-04 13:00:54,271] DEBUG InputStreamReaderThread - (/var/madsonic/transcode/Audioffmpeg) disc : 1
[2013-11-04 13:00:54,271] DEBUG InputStreamReaderThread - (/var/madsonic/transcode/Audioffmpeg) TOTALDISCS : 1
[2013-11-04 13:00:54,271] DEBUG InputStreamReaderThread - (/var/madsonic/transcode/Audioffmpeg) Duration: 00:03:11.33, bitrate: 628 kb/s
[2013-11-04 13:00:54,271] DEBUG InputStreamReaderThread - (/var/madsonic/transcode/Audioffmpeg) Stream #0.0: Audio: flac, 44100 Hz, stereo, s16
[2013-11-04 13:00:54,282] DEBUG InputStreamReaderThread - (/var/madsonic/transcode/Audioffmpeg) Output #0, mp3, to 'pipe:':
[2013-11-04 13:00:54,283] DEBUG InputStreamReaderThread - (/var/madsonic/transcode/Audioffmpeg) Metadata:
[2013-11-04 13:00:54,283] DEBUG InputStreamReaderThread - (/var/madsonic/transcode/Audioffmpeg) TIT2 : Ya Got Trouble: Trouble In New York City
[2013-11-04 13:00:54,283] DEBUG InputStreamReaderThread - (/var/madsonic/transcode/Audioffmpeg) TPE1 : Original Cast
[2013-11-04 13:00:54,283] DEBUG InputStreamReaderThread - (/var/madsonic/transcode/Audioffmpeg) TALB : Forbidden Broadway - Volume 3
[2013-11-04 13:00:54,283] DEBUG InputStreamReaderThread - (/var/madsonic/transcode/Audioffmpeg) TDRL : 1995
[2013-11-04 13:00:54,283] DEBUG InputStreamReaderThread - (/var/madsonic/transcode/Audioffmpeg) COMPILATION : 0
[2013-11-04 13:00:54,283] DEBUG InputStreamReaderThread - (/var/madsonic/transcode/Audioffmpeg) TEMPO : 0 BPM
[2013-11-04 13:00:54,283] DEBUG InputStreamReaderThread - (/var/madsonic/transcode/Audioffmpeg) ITUNNORM : 00000217 00000227 00002C8F 00002A85 0002396E 0002396E 000061C7 00005DEF 0001A025 0001A025
[2013-11-04 13:00:54,283] DEBUG InputStreamReaderThread - (/var/madsonic/transcode/Audioffmpeg) ITUNES_CDDB_IDS : 19+9D6F74D8E38970CBBBEAA7E633797D56+40818
[2013-11-04 13:00:54,283] DEBUG InputStreamReaderThread - (/var/madsonic/transcode/Audioffmpeg) UFIDHTTP://WWW.CDDB.COM/ID3/TAGINFO1.HTML: 3CD3N96S3458840V28AC61CFE869409A33734D7A880A51917AP3
[2013-11-04 13:00:54,283] DEBUG InputStreamReaderThread - (/var/madsonic/transcode/Audioffmpeg) TCON : Broadway
[2013-11-04 13:00:54,283] DEBUG InputStreamReaderThread - (/var/madsonic/transcode/Audioffmpeg) ENCODED BY : dBpoweramp Release 13.4
[2013-11-04 13:00:54,283] DEBUG InputStreamReaderThread - (/var/madsonic/transcode/Audioffmpeg) TRCK : 3
[2013-11-04 13:00:54,284] DEBUG InputStreamReaderThread - (/var/madsonic/transcode/Audioffmpeg) TOTALTRACKS : 19
[2013-11-04 13:00:54,284] DEBUG InputStreamReaderThread - (/var/madsonic/transcode/Audioffmpeg) TPOS : 1
[2013-11-04 13:00:54,284] DEBUG InputStreamReaderThread - (/var/madsonic/transcode/Audioffmpeg) TOTALDISCS : 1
[2013-11-04 13:00:54,284] DEBUG InputStreamReaderThread - (/var/madsonic/transcode/Audioffmpeg) TSSE : Lavf53.6.0
[2013-11-04 13:00:54,284] DEBUG InputStreamReaderThread - (/var/madsonic/transcode/Audioffmpeg) Stream #0.0: Audio: libmp3lame, 44100 Hz, 2 channels, s16, 256 kb/s
[2013-11-04 13:00:54,284] DEBUG InputStreamReaderThread - (/var/madsonic/transcode/Audioffmpeg) Stream mapping:
[2013-11-04 13:00:54,284] DEBUG InputStreamReaderThread - (/var/madsonic/transcode/Audioffmpeg) Stream #0.0 -> #0.0
[2013-11-04 13:00:54,284] DEBUG InputStreamReaderThread - (/var/madsonic/transcode/Audioffmpeg) Press [q] to stop, [?] for help
[2013-11-04 13:01:06,365] DEBUG InputStreamReaderThread - (/var/madsonic/transcode/Audioffmpeg) size= 5981kB time=00:03:11.37 bitrate= 256.0kbits/s
[2013-11-04 13:01:06,366] DEBUG InputStreamReaderThread - (/var/madsonic/transcode/Audioffmpeg) video:0kB audio:5980kB global headers:0kB muxing overhead 0.012574%
drrighteous
 
Posts: 7
Joined: 02 Jul 2013, 00:46
Has thanked: 1 time
Been thanked: 9 times

Return to Bug Reports 5.x

Who is online

Users browsing this forum: No registered users and 1 guest

cron